ammamed.com

Torrents
Documentales 842
Películas 11256
Películas HD 2068
Series 1961
   Episodios 22513
Series HD 244
   Episodios 2743
Juegos 2689
   PC 1736
Variados 1521
   Deportes 36
   Programas 592
   Videoclips 102
   Otros 722
Música MP3 3525
Total Torrents 57258

Información
Esta web no contiene ningún tipo de fichero almacenado.

Todos los archivos se comparten mediante el BitTorrent, un programa P2P de intercambio entre usuarios.



Descarga la última versión de uTorrent y baja a la máxima velocidad:
Avril Lavigne - Hello Kitty
Total Descargas:  2.735 En Diciembre:  2.735

Fecha:  2016-05-31



Torrent:      Descargar         Tamaño:  67,49 MB
Descripción:

General
Format : MPEG-4
Format profile : Base Media
File size : 67.5 MiB
Duration : 3mn 18s
Overall bit rate mode : Variable
Overall bit rate : 2 855 Kbps

Video
Format : AVC
Format profile : High@L3.1
Format settings, CABAC : Yes
Format settings, ReFrames : 1 frame
Duration : 3mn 18s
Bit rate : 2 768 Kbps
Maximum bit rate : 4 438 Kbps
Width : 1 280 pixels
Height : 720 pixels
Display aspect ratio : 16:9
Frame rate : 30.000 fps
Stream size : 65.4 MiB (97%)
Title : Avril Lavigne - Hello Kitty (2014) 720p x264 AAC [GWC]

Audio
Format : AAC
Format profile : LC
Duration : 3mn 18s
Bit rate mode : Variable
Channel(s) : 2 channels
Stream size : 2.00 MiB (3%)
Language : English



Volver al índice de Variados