Inicio   -   Ayuda   -   Contacto   -   Últimos Torrents

Torrents
Documentales842
Películas11256
Películas HD2068
Series1961
  Episodios22513
Series HD244
  Episodios2743
Juegos2689
  PC1736
Variados1521
  Deportes36
  Programas592
  Videoclips102
  Otros722
Música MP3 3525
Total Torrents57258

Información
Esta web no contiene ningún tipo de fichero almacenado.

Todos los archivos se comparten mediante el BitTorrent, un programa P2P de intercambio entre usuarios.



Descarga la última versión de uTorrent y baja a la máxima velocidad:
Shawn Mendes - Stitches
Total Descargas:  4.604 En Diciembre:  4.126

Fecha:  2015-11-25



Torrent:      Descargar         Tamaño:  29,40 MB
Descripción:

General
Format : MPEG-4
Codec ID : mp42
File size : 28.2 MiB
Duration : 3mn 59s
Overall bit rate : 987 Kbps

Video
Format : AVC
Format/Info : Advanced Video Codec
Format profile : High@L4.1
Duration : 3mn 59s
Bit rate : 854 Kbps
Width : 1 280 pixels
Height : 540 pixels
Display aspect ratio : 2.40:1
Frame rate : 23.976 fps
Bit depth : 8 bits
Scan type : Progressive
Stream size : 24.4 MiB (86%)

Audio
Format : AAC
Format/Info : Advanced Audio Codec
Format profile : HE-AAC / LC
Duration : 3mn 59s
Bit rate mode : Variable
Bit rate : 128 Kbps
Channel(s) : 2 channels
Stream size : 3.66 MiB (13%)
Title : Stereo / Stereo
Language : English

Subtitles
Language : English
Format : ASS
Type : Soft Subbed



Volver al índice de Variados







Datos legales


18:42:00
computer